Get video media information

Give mediainfo a try. On the command line type mediainfo input.mkv. For more detailed video information mediainfo --fullscan input.mkv.

General
Count                                    : 359
Count of stream of this kind             : 1
Kind of stream                           : General
Kind of stream                           : General
Stream identifier                        : 0
Count of video streams                   : 1
Count of audio streams                   : 1
OtherCount                               : 1
Video_Format_List                        : ProRes
Video_Format_WithHint_List               : ProRes
Codecs Video                             : ProRes
Video_Language_List                      : English
Audio_Format_List                        : PCM
Audio_Format_WithHint_List               : PCM
Audio codecs                             : PCM
Audio_Language_List                      : English
Other_Format_List                        : QuickTime TC
Other_Format_WithHint_List               : QuickTime TC
Other_Codec_List                         : QuickTime TC
Other_Language_List                      : English
Complete name                            : A018_09051933_C012.mov
File name extension                      : A018_09051933_C012.mov
File name                                : A018_09051933_C012
File extension                           : mov
Format                                   : MPEG-4
Format                                   : MPEG-4
Format/Extensions usually used           : braw mov mp4 m4v m4a m4b m4p m4r 3ga 3gpa 3gpp 3gp 3gpp2 3g2 k3g jpm jpx mqv ismv isma ismt f4a f4b f4v
Commercial name                          : MPEG-4
Format profile                           : QuickTime
Internet media type                      : video/mp4
Codec ID                                 : qt  
Codec ID                                 : qt   2005.03 (qt  )
Codec ID/Url                             : http://www.apple.com/quicktime/download/standalone.html
CodecID_Version                          : 2005.03
CodecID_Compatible                       : qt  
File size                                : 53142204
File size                                : 50.7 MiB
File size                                : 51 MiB
File size                                : 51 MiB
File size                                : 50.7 MiB
File size                                : 50.68 MiB
Duration                                 : 2708
Duration                                 : 2 s 708 ms
Duration                                 : 2 s 708 ms
Duration                                 : 2 s 708 ms
Duration                                 : 00:00:02.708
Duration                                 : 00:00:02:17
Duration                                 : 00:00:02.708 (00:00:02:17)
Overall bit rate                         : 156993217
Overall bit rate                         : 157 Mb/s
Frame rate                               : 24.000
Frame rate                               : 24.000 FPS
Frame count                              : 65
Stream size                              : 63244
Stream size                              : 61.8 KiB (0%)
Stream size                              : 62 KiB
Stream size                              : 62 KiB
Stream size                              : 61.8 KiB
Stream size                              : 61.76 KiB
Stream size                              : 61.8 KiB (0%)
Proportion of this stream                : 0.00119
HeaderSize                               : 32
DataSize                                 : 53137376
FooterSize                               : 4796
IsStreamable                             : No
Encoded date                             : UTC 2019-09-06 02:33:14
Tagged date                              : UTC 2019-09-06 02:33:14
File last modification date              : UTC 2019-10-10 17:59:26
File last modification date (local)      : 2019-10-10 10:59:26
Writing library                          : Apple QuickTime
Writing library                          : Apple QuickTime
Encoded_Library_Name                     : Apple QuickTime
com.apple.proapps.manufacturer           : Blackmagic Design
com.blackmagic-design.camera.uuid        : 11a5cbab-ce61-476c-aeab-972ebb4fcd7c
com.blackmagic-design.camera.projectFPS  : 24
com.apple.proapps.shootingRate           : 24
com.blackmagic-design.camera.cameraType  : Blackmagic Pocket Cinema Camera 6K
com.blackmagic-design.camera.shutterAngl : 180°
com.blackmagic-design.camera.shutterMode : Angle
com.blackmagic-design.camera.aperture    : f1.7
com.blackmagic-design.camera.iso         : 400
com.blackmagic-design.camera.whiteBalanc : 4500
com.blackmagic-design.camera.whiteBalanc : 15
com.apple.proapps.customgamma            : com.blackmagic-design.camera.filmlog
com.blackmagic-design.camera.look.LUTNam : Blackmagic Pocket 6K Film to Extended Video.cube
com.blackmagic-design.camera.guides.aspe : 2.40:1
com.blackmagic-design.camera.guides.safe : 90
com.blackmagic-design.camera.firmware    : 6.5
com.apple.proapps.clipID                 : A018_09051933_C012
com.apple.proapps.reel                   : 18
com.apple.proapps.scene                  : 2
com.apple.proapps.shot                   : 99
com.blackmagic-design.camera.environment : interior
com.blackmagic-design.camera.dayNight    : day
com.blackmagic-design.camera.lensType    : Sigma 18-35mm f/1.8 DC
com.blackmagic-design.camera.lensFocalLe : 35mm
com.blackmagic-design.camera.lensDistanc : 1470mm to 2130mm
com.apple.proapps.cameraName             : A
com.blackmagic-design.camera.colorScienc : Blackmagic Pocket Cinema Camera 6K, Color Science Gen 4
com.blackmagic-design.camera.dateRecorde : 2019:09:05

Video
Count                                    : 377
Count of stream of this kind             : 1
Kind of stream                           : Video
Kind of stream                           : Video
Stream identifier                        : 0
StreamOrder                              : 0
ID                                       : 1
ID                                       : 1
Format                                   : ProRes
Format                                   : ProRes
Commercial name                          : ProRes
Format version                           : Version 0
Format profile                           : 422 Proxy
Codec ID                                 : apco
Codec ID/Url                             : http://www.apple.com/quicktime/download/standalone.html
Duration                                 : 2708
Duration                                 : 2 s 708 ms
Duration                                 : 2 s 708 ms
Duration                                 : 2 s 708 ms
Duration                                 : 00:00:02.708
Duration                                 : 00:00:02:17
Duration                                 : 00:00:02.708 (00:00:02:17)
Bit rate mode                            : CBR
Bit rate mode                            : Constant
Bit rate                                 : 154483082
Bit rate                                 : 154 Mb/s
Width                                    : 4096
Width                                    : 4 096 pixels
Height                                   : 2160
Height                                   : 2 160 pixels
Sampled_Width                            : 4096
Sampled_Height                           : 2160
Pixel aspect ratio                       : 1.000
Display aspect ratio                     : 1.896
Display aspect ratio                     : 1.896
Rotation                                 : 0.000
Frame rate mode                          : CFR
Frame rate mode                          : Constant
Frame rate                               : 24.000
Frame rate                               : 24.000 FPS
Frame count                              : 65
Color space                              : YUV
Chroma subsampling                       : 4:2:2
Chroma subsampling                       : 4:2:2
Scan type                                : Progressive
Scan type                                : Progressive
Bits/(Pixel*Frame)                       : 0.728
Delay                                    : 70394708
Delay                                    : 19 h 33 min
Delay                                    : 19 h 33 min 14 s 708 ms
Delay                                    : 19 h 33 min
Delay                                    : 19:33:14.708
Delay_Settings                           : DropFrame=No / 24HourMax=Yes / IsVisual=No
Delay_DropFrame                          : No
Delay, origin                            : Container
Delay, origin                            : Container
Stream size                              : 52298960
Stream size                              : 49.9 MiB (98%)
Stream size                              : 50 MiB
Stream size                              : 50 MiB
Stream size                              : 49.9 MiB
Stream size                              : 49.88 MiB
Stream size                              : 49.9 MiB (98%)
Proportion of this stream                : 0.98413
Writing library                          : bmd0
Writing library                          : bmd0
Language                                 : en
Language                                 : English
Language                                 : English
Language                                 : en
Language                                 : eng
Language                                 : en
Encoded date                             : UTC 2019-09-06 02:33:14
Tagged date                              : UTC 2019-09-06 02:33:14
colour_description_present               : Yes
colour_description_present_Source        : Container / Stream
Color primaries                          : BT.709
colour_primaries_Source                  : Container
colour_primaries_Original_Source         : Stream
Transfer characteristics                 : BT.709
transfer_characteristics_Source          : Container
transfer_characteristics_Original_Source : Stream
Matrix coefficients                      : BT.709
matrix_coefficients_Source               : Container / Stream

Audio
Count                                    : 280
Count of stream of this kind             : 1
Kind of stream                           : Audio
Kind of stream                           : Audio
Stream identifier                        : 0
StreamOrder                              : 1
ID                                       : 2
ID                                       : 2
Format                                   : PCM
Format                                   : PCM
Commercial name                          : PCM
Format settings                          : Little / Signed
Format settings, Endianness              : Little
Format settings, Sign                    : Signed
Codec ID                                 : in24
Codec ID/Url                             : http://www.apple.com/quicktime/download/standalone.html
Duration                                 : 2708
Duration                                 : 2 s 708 ms
Duration                                 : 2 s 708 ms
Duration                                 : 2 s 708 ms
Duration                                 : 00:00:02.708
Duration                                 : 00:00:02.708
Bit rate mode                            : CBR
Bit rate mode                            : Constant
Bit rate                                 : 2304000
Bit rate                                 : 2 304 kb/s
Channel(s)                               : 2
Channel(s)                               : 2 channels
Channel positions                        : Front: L R
Channel layout                           : L R
Sampling rate                            : 48000
Sampling rate                            : 48.0 kHz
Samples count                            : 129984
Bit depth                                : 24
Bit depth                                : 24 bits
Delay                                    : 70394708
Delay                                    : 19 h 33 min
Delay                                    : 19 h 33 min 14 s 708 ms
Delay                                    : 19 h 33 min
Delay                                    : 19:33:14.708
Delay_DropFrame                          : No
Delay, origin                            : Container
Delay, origin                            : Container
Delay relative to video                  : 0
Delay relative to video                  : 00:00:00.000
Stream size                              : 780000
Stream size                              : 762 KiB (1%)
Stream size                              : 762 KiB
Stream size                              : 762 KiB
Stream size                              : 762 KiB
Stream size                              : 761.7 KiB
Stream size                              : 762 KiB (1%)
Proportion of this stream                : 0.01468
Language                                 : en
Language                                 : English
Language                                 : English
Language                                 : en
Language                                 : eng
Language                                 : en
Encoded date                             : UTC 2019-09-06 02:33:14
Tagged date                              : UTC 2019-09-06 02:33:14

Other
Count                                    : 190
Count of stream of this kind             : 1
Kind of stream                           : Other
Kind of stream                           : Other
Stream identifier                        : 0
StreamOrder                              : 2
ID                                       : 3
ID                                       : 3
Type                                     : Time code
Format                                   : QuickTime TC
Format                                   : QuickTime TC
Commercial name                          : QuickTime TC
Duration                                 : 2708
Duration                                 : 2 s 708 ms
Duration                                 : 2 s 708 ms
Duration                                 : 2 s 708 ms
Duration                                 : 00:00:02.708
Duration                                 : 00:00:02.708
Frame rate                               : 24.000
Frame rate                               : 24.000 FPS
Time code of first frame                 : 19:33:14:17
Time code, striped                       : Yes
Time code, striped                       : Yes
Language                                 : en
Language                                 : English
Language                                 : English
Language                                 : en
Language                                 : eng
Language                                 : en
Encoded date                             : UTC 2019-09-06 02:33:14
Tagged date                              : UTC 2019-09-06 02:33:14

Leave a Reply

Your email address will not be published. Required fields are marked *